forums.PPSSPP.org
Crimson Gem Saga - Printable Version

+- forums.PPSSPP.org (https://forums.ppsspp.org)
+-- Forum: PPSSPP - Playstation Portable Simulator Suitable for Playing Portably (/forumdisplay.php?fid=1)
+--- Forum: Commercial Games - Compatibility and Results (/forumdisplay.php?fid=5)
+---- Forum: Playable Games (/forumdisplay.php?fid=13)
+---- Thread: Crimson Gem Saga (/showthread.php?tid=1243)

Pages: 1 2 3 4 5


Crimson Gem Saga - sfageas - 03-02-2013 02:43 PM

Genre : RPG
Region : US
Format : CSO
Version : v0.6-839-g7d5b53a
Game ID : ULUS10400
OS : Win
Compatability : Playable
Notes : full speed-missing voices-music


RE: Crimson Gem Saga [Win] - Klayd - 03-05-2013 08:37 PM

On 986 not playable on andoid,just black screen Sad
But on 945 working nice


RE: Crimson Gem Saga [Win] - xaonrider92 - 03-13-2013 12:44 PM

Genre : RPG
Region : USA
Format : ISO
Version : v0.7-16-g2fa8bc6
OS : Win
Compatability : Playable
Notes : Sound effects and voices distorted. Opening scene music distorted, rest of the music is missing.


RE: Crimson Gem Saga [Win] - aki21 - 03-13-2013 01:11 PM

That good to see,hey can i ask,is ppsspp play cso better or iso,since my ppsspp(pc) can play harvest moon hero of leaf valley (cso:17*mb i think)perfectly,but the iso(4**mb) file cant even go in game.it is becouse the size?sorry to ask here.


RE: Crimson Gem Saga [Win] - sfageas - 03-13-2013 01:14 PM

maybe you have a corrupted iso


RE: Crimson Gem Saga - verylove - 03-28-2013 07:28 AM

black screen on android ( galaxy s3 ) , work on Win


RE: Crimson Gem Saga - rpglord - 06-02-2013 02:53 PM

video/at3+ testing:
Sound is in slow motion and skipping in dialogue
Slowing is probably to the fact audio is mono.


RE: Crimson Gem Saga - Zantezuken - 06-27-2013 11:03 AM

Yeah, just tested it on 0.8.1 and the sound is definitely "stretching" despite full speed.


RE: Crimson Gem Saga - Zantezuken - 06-28-2013 05:03 AM

(06-02-2013 02:53 PM)rpglord Wrote:  Slowing is probably to the fact audio is mono.

N-no, I don't think so, it uses LP4 Mode (joint stereo) it seems:
Code:
Format : Atrac3
Codec ID : 270
Codec ID/Hint : Sony
Duration : 47s 987ms
Bit rate : 66.2 Kbps
Channel(s) : 2 channels
Sampling rate : 44.1 KHz
Compression mode : Lossy
Stream size : 388 KiB (100%)

And SND0.at3 that is not packed into game resources:
Code:
Format : Atrac3
Codec ID : FFFE / 58CB7144-23E9-BFAA-A119-FFFA01E4CE62
Duration : 54s 358ms
Bit rate : 48.2 Kbps
Channel(s) : 2 channels
Channel positions : Front: L R
Sampling rate : 44.1 KHz
Compression mode : Lossy
Stream size : 320 KiB (100%)



RE: Crimson Gem Saga - rpglord - 06-28-2013 01:04 PM

(06-28-2013 05:03 AM)Zantezuken Wrote:  
(06-02-2013 02:53 PM)rpglord Wrote:  Slowing is probably to the fact audio is mono.

N-no, I don't think so, it uses LP4 Mode (joint stereo) it seems:

Well according to jpcsp forum it's mono audio
http://www.emunewz.net/forum/showthread.php?tid=1835&page=3


RE: Crimson Gem Saga - Zantezuken - 06-29-2013 09:23 AM

Oh, okay then. I never was sure if I extracted them properly anyway.


RE: Crimson Gem Saga - vanmido - 07-30-2013 12:38 PM

Tested on android. Im using galaxy tab 7.0 gt6200. Super slow FPS 30-50. Speed game 25-35%. Tried a lot of settings but had a same issue.


RE: Crimson Gem Saga - vsub_ - 09-27-2013 09:38 AM

Cleared the game two weeks ago while using 0.9.1-542 x86.
No Problems at all...need buffered rendering,texture filtering to auto\nearest and no scaling(it looks bad otherwise)


RE: Crimson Gem Saga - Zantezuken - 10-21-2013 07:07 PM

How did you cope with sound? It is so terrible - 50% of it pure crackling noises.


RE: Crimson Gem Saga - vsub_ - 11-01-2013 07:35 AM

The sound problems was fixed long ago(windows version at least...I don't know about the other platforms)